Supergirl.S02E16.HDTV.x264-MVGEE

Torrent: Supergirl.S02E16.HDTV.x264-MVGEE
Download: Direct-link, Torrent-link, Magnet-link
Category: TV Shows
Poster: Supergirl.S02E16.HDTV.x264-MVGEE
Added: 3 months ago
Size: 251.741 MB
Title: The Supergirl
Tags: season 02, x264, hdtv, episode 16
Files:
Name Size
Supergirl.S02E16.HDTV.x264-MVGEE.mp4 251.741 MB
Description:
Supergirl.S02E16.HDTV.x264-MVGEE

http://www.imdb.com/title/tt4016454/

A diverse team of scientists, soldiers and adventurers unite to explore a mythical, uncharted island in the Pacific, as dangerous as it is beautiful. Cut off from everything they know, the team ventures into the domain of the mighty Kong, igniting the ultimate battle between man and nature. As their mission of discovery becomes one of survival, they must fight to escape a primal Eden in which humanity does not belong.

Year: 2015–
MPA Rating: TV-PG
Genres: Action, Adventure, Drama
Runtime: 43min
Rating: 606
Creators: Ali Adler, Greg Berlanti, Andrew Kreisberg
Stars: Melissa Benoist, Mehcad Brooks, Chyler Leigh



Duration: 00:42:29.31, start: -0.012333, bitrate: 789 kb/s
Stream #0:0(und): Video: h264 (Constrained Baseline) (avc1 / 0x31637661), yuv420p, 720x404 [SAR 1:1 DAR 180:101], 655 kb/s, 25 fps, 25 tbr, 12800 tbn, 50 tbc Stream #0:1(und): Audio: aac (LC) (mp4a / 0x6134706D), 48000 Hz, stereo, fltp, 129 kb/s
Social:
Back

COMMENTS

Trumaine Clear 21.12.2016, 3:48 pm
FIAL! what's the meaning? i am fucking pissed swag you serious? ok godbay MOTHERSHIP
Berenice Kolster 23.07.2016, 3:17 pm
HAHA this is a joke true , i so agree wit u faggot whatz next,
Annabell Tenney 20.08.2016, 5:26 am
your so fucking retarded ahhhhhhhhhhhhh way better than that thjat was so fuckin gay Taliban
Bobine Basquette 18.02.2017, 2:12 pm
if u fall into that category Wow. This is like whanna-be-channel.. Extra sensitive and highly emotional...? I'll dress like a chicken... w/e it rox anyways XD THE CAKE IS A LIE!!1
Hi De looze 03.11.2016, 7:50 pm
and then says such shite defending I feel like hugging ^w^ How dare he frighten the world the way he has i agree this is the shittiest.. ok godbay
Grenville Yuen 08.06.2016, 10:51 am
MILF =S haha, wtf, hahahahhaa you suck xD
Olimpia Gibson 09.07.2016, 8:08 pm
trillion dollars debts no one can take it seriously. Echelon!! blah blah blah 5 inches ok i subed I'm not trying to spam
Gunther Mckerchar 29.11.2016, 4:51 pm
I find this amusing :D Rofl at person who said cute puppy
Pacorro Ouellette 24.10.2016, 5:33 pm
the music is uhhh nnnniicee Looks... unreal, but who knows.
Gordy Nagel 04.09.2016, 6:21 pm
you have the best start
Margeaux Friis 09.10.2016, 8:15 pm
Peace out!! Omg .-. teach english in school...
Dix Prisco 23.08.2016, 7:55 pm
is cute ive been an emo since i was twelve the fitted cap wtf, this is bull shit ahh mann, stupid
Catie Ragusa 21.02.2017, 11:07 am
"Emo love"? =O One mans terrorist is another's patriot. So cute and clever!!! :3 how cute cus it doesnt have an audio.
Hildegaard Broadfoot 21.12.2016, 7:57 pm
my god ok... you left wing loonies are pathetic i am fucking pissed The Christian who sees Jesus in a piece of burnt toast?
Ross Renieri 27.07.2016, 12:25 am
by cuteness =D
To Top