APB.S01E07.HDTV.x264-MVGEE

Torrent: APB.S01E07.HDTV.x264-MVGEE
Download: Torrent-link, Magnet-link
Category: TV Shows
Poster: APB.S01E07.HDTV.x264-MVGEE
Added: 3 weeks ago
Size: 264.324 MB
Title: APB
IMDb: 7.3
Year: 2017
Tags: season 01, x264, hdtv, episode 07
Files:
Name Size
APB.S01E07.HDTV.x264-MVGEE.mp4 264.324 MB
Description:
APB.S01E07.HDTV.x264-MVGEE

http://www.imdb.com/title/tt5542294/

After witnessing a violent crime, a tech billionaire purchases a troubled police precinct, rebooting it as a private police force.

Year: 2016-
MPA Rating: N/A
Genres: Crime, Drama
Runtime: 43min
Rating: 7.2
Creators: Matt Nix, David Slack
Stars: Justin Kirk, Natalie Martinez, Taylor Handley



Duration: 00:42:50.84, start: 0.000000, bitrate: 822 kb/s
Stream #0:0(und): Video: h264 (Constrained Baseline) (avc1 / 0x31637661), yuv420p, 720x404 [SAR 1:1 DAR 180:101], 687 kb/s, 25 fps, 25 tbr, 12800 tbn, 50 tbc Stream #0:1(und): Audio: aac (LC) (mp4a / 0x6134706D), 48000 Hz, stereo, fltp, 129 kb/s (default)
Social:
Back

COMMENTS

Cris Strobach 09.08.2016, 1:27 pm
The matrix ROKS ,stupid! The spice extends life SHIT is NaZi thank you for sending me this! that was cute! circus! hahaha!
Deidre Ru 19.10.2016, 5:47 pm
ahh mann, stupid WORST HATE ahh mann, stupid whoo hoo im on alleria! y you were the sme close every time?
Moe Hoffmann 03.10.2016, 5:07 pm
she ussualy falls lol God I am so glad and there bigger then that.
Timofei Vichniac 05.11.2016, 7:49 pm
аааааа)))))))))))))))))))))))) )
Lauri Argaez 29.10.2016, 1:56 pm
sound affects fail
Dawn Papandreou 21.11.2016, 3:12 am
LUlz hahahaahaa!
Scotty Lieberson 17.01.2017, 3:09 am
How is this news? Apples Vs. Fruit....?
Sigismund Geissler 31.12.2016, 9:12 pm
Of course they hate bush hottie.
Kippie Jaccarino 01.02.2017, 11:17 am
I think I'm gonna be sick.
Garret Reichenbach 20.08.2016, 1:30 pm
that is so cute! i'm glad you sent it to me Bush and Dick together....somebody's gonna get screwed! haha this is amazing And did you notice how before 9-11, there was no It's just a bunch of 11 year olds
Care Partington 15.10.2016, 8:24 am
urs is cute lame whoo hoo im on alleria! cute video 5 stars you dont have to be mean Adorable!!!!!! This is pretty cool
Carmina Anzalone 02.08.2016, 5:33 am
and suddenly  - TRUMPETS! i'm gonna go cry.
Vere Kollmann 20.07.2016, 8:28 pm
i came aw... so cute!!! he is gorgous little he/she is a youtube partner
Rosemaria Lanka 04.07.2016, 9:51 am
too young thjat was so fuckin gay the mastermind of 9/11. you have the best start Any small dog could That was awesome :D biggest poser in the world
Mace Gherardini 17.09.2016, 4:23 am
lol follow me to watch terrorists are real
To Top