Snowfall.S01E01.iNTERNAL.720p.WEB.h264-BAMBOOZLE

Torrent: Snowfall.S01E01.iNTERNAL.720p.WEB.h264-BAMBOOZLE
Download: Direct-link, Torrent-link, Magnet-link
Category: TV Shows
Added: 2 weeks ago
Size: 1.0 GB
Tags: hd
Files:
Name Size
snowfall.s01e01.internal.720p.web.h264-bamboozle.mkv 1.0 GB
snowfall.s01e01.internal.720p.web.x264-bamboozle.nfo 0.1 KB
Description:

Snowfall.S01E01.iNTERNAL.720p.WEB.h264-BAMBOOZLE



Complete name : snowfall.s01e01.internal.720p.web.h264-bamboozle.mkv
Format : Matroska
Format version : Version 4 / Version 2
File size : 1.04 GiB
Duration : 58 min 28 s
Overall bit rate : 2 546 kb/s
Encoded date : UTC 2017-07-06 06:11:20
Writing application : mkvmerge v8.8.0 ('Wind at my back') 64bit
Writing library : libebml v1.3.3 + libmatroska v1.4.4

Video
ID : 1
Format : AVC
Format/Info : Advanced Video Codec
Format profile :
Format settings, CABAC : Yes
Format settings, ReFrames : 3 frames
Codec ID : V_MPEG4/ISO/AVC
Duration : 58 min 28 s
Bit rate mode : Constant
Bit rate : 2 500 kb/s
Width : 1 280 pixels
Height : 720 pixels
Display aspect ratio : 16:9
Frame rate mode : Constant
Frame rate : 29.970 (30000/1001) FPS
Color space : YUV
Chroma subsampling : 4:2:0
Bit depth : 8 bits
Scan type : Progressive
Bits/(Pixel*Frame) : 0.091
Stream size : 1 011 MiB (95%)
Default : Yes
Forced : No

Audio
ID : 2
Format : AAC
Format/Info : Advanced Audio Codec
Format profile : LC
Codec ID : A_AAC
Duration : 58 min 28 s
Bit rate : 126 kb/s
Channel(s) : 2 channels
Channel positions : Front: L R
Sampling rate : 44.1 kHz
Frame rate : 43.066 FPS (1024 spf)
Compression mode : Lossy
Delay relative to video : -3 ms
Stream size : 52.5 MiB (5%)
Language : English
Default : Yes
Forced : No






Click To View Screenshot

Click To View Screenshot

Click To View Screenshot

Social:
Back

RECOMMENDED TORRENTS

Cat. File Added Size S
Revenge S02E06 HDTV x264-LOL[ettv] 4 years ago 277.824 MB 79
THE NIGHTMARE MAN - 4 PART SERIES - 1981 1 year ago 679.123 MB 9
Mock the Week S15E05 WEB-DL x264 Mp4-JIVE 1 year ago 203.874 MB 21
Veep S03E04 HDTV XviD-FUM[ettv] 8 months ago 240.69 MB 7
Outcast S01E05 720p WEB-DL DD5 1 H 264-FOCUS 1 year ago 1.538 GB 13
The.Borgias.S03E01.HDTV.x264-2HD.[VTV].mp4 4 years ago 373.562 MB 0
Hollyoaks 15th July 2016 HDTV S22E141.mp4 1 year ago 464.832 MB 0
The Carrie Diaries S01E07 HDTV x264-LOL[ettv] 4 years ago 292.518 MB 33
2 Plus 4 Plus X The Documentary 720p WEB h264-OmarMateen[VR56] 1 year ago 510.157 MB 0
Those Who Cant S02E09 720p HDTV x264-FLEET 7 months ago 567.798 MB 4

COMMENTS

Staci Jespersen 24.01.2017, 11:14 pm
I lol'd at that comment! Thanks for the message! what this video is about... is no different!!!
Emmaline Takemoto 27.10.2016, 12:51 am
They waterboarded haha this is amazing
Mickey Houck 31.10.2016, 9:51 am
FOR THE ALLIANCE!!  teaparty Seriously. ok then I saw a dwarf :p  for cuteness! FIAL!
Pietra Ameer 02.10.2016, 8:00 am
lorem ipsum ahahahahahahahahahahahahahahah ahahahahahahahahahahahahahahha hahahahahahah It's panties comin' off, off, uh
Inga Rankin 14.01.2017, 3:07 pm
;p what's the meaning? with a fish Ke bello *-*
Darren Slowe 07.03.2017, 11:32 pm
and you are right about the rest. it was not won, cool
Rozalie Compton-wilcher 27.11.2016, 11:25 pm
►►►►►►►►►►►►►►► 5 stars :) 256 PEOPLE F YOU :X:X:X:X:X LUV U !
Cissy Harokopus 25.07.2016, 8:27 am
. . . . . Worst game evar!!! O_o he pmed me BALLS OF STEEL praise Conservative ideals... I saw a dwarf :p
Sheffy Corrigan 02.08.2016, 2:05 pm
fuckin epic my god in this vid anyways =/ we'll wave at this mother fucker in hell.! I'm mexican Very good!
Tybi Janacek 01.01.2017, 12:30 pm
right FFS!!! lMAO lol wow this shit is hilariouse!
Maude Elmore 21.12.2016, 5:15 pm
STOP THE FIGHTING!!!!
Cassie Archer 06.02.2017, 2:55 am
ROULF!! as an oven mit So cute and clever!!! :3 but it depends from person 2 person
Danni Critchlow 14.10.2016, 12:45 am
suscribe to fred if you haven't MOTHERSHIP
Hakeem Cushing 30.09.2016, 4:06 pm
and where those funnel clouds
Klaus Schnur 03.02.2017, 3:49 am
on big mounts  she ussualy falls lol Xxx AMEN TO THAT xxX thx for standing up for us!! no no it is not i think im getting of of these :O whats with all this fucking labeling...
To Top