Archer S08E07 Gramarcy Halberd 720p WEB x264-[MULVAcoded]

Torrent: Archer S08E07 Gramarcy Halberd 720p WEB x264-[MULVAcoded]
Download: Direct-link, Torrent-link, Magnet-link
Category: TV Shows
Added: 1 month ago
Size: 115.8 MB
Tags: hd
Files:
Name Size
Archer.S08E07.Gramarcy.Halberd.720p.WEB.x264-[MULVAcoded].mp4 115.8 MB
Description:


Archer S08E07 Gramarcy Halberd 720p WEB x264-[MULVAcoded]
https://www.imdb.com/title/tt1486217

Airdate : 2017-05-17



SEED/LEECH STATS


Archer and Trexler try to escape a rampaging Dutch by telling the world's worst knock-knock joke.

English subtitles included

Screenshots

Click to enlarge





***NOTE***
MULVAcoded encodes are now compatible with xbox 360/PS3/PS4 and most embedded TV players!
*** *** ***


Source : Archer.S08E07.1080p.WEB-DL.DD5.1.H264-RARBG

Format : MPEG-4
Format profile : Base Media
Codec ID : isom (isom/iso2/avc1/mp41)
File size : 116 MiB
Duration : 18 min 46 s
Overall bit rate mode : Variable
Overall bit rate : 863 kb/s
Writing application : Lavf56.32.100

Video
ID : 1
Format : AVC
Format/Info : Advanced Video Codec
Format profile :
Format settings, CABAC : Yes
Format settings, ReFrames : 8 frames
Codec ID : avc1
Codec ID/Info : Advanced Video Coding
Duration : 18 min 46 s
Bit rate : 759 kb/s
Width : 1 280 pixels
Height : 720 pixels
Display aspect ratio : 16:9
Frame rate mode : Variable
Frame rate : 23.976 (24000/1001) FPS
Minimum frame rate : 23.564 FPS
Maximum frame rate : 24.390 FPS
Color space : YUV
Chroma subsampling : 4:2:0
Bit depth : 8 bits
Scan type : Progressive
Bits/(Pixel*Frame) : 0.034
Stream size : 102 MiB (88%)

Audio
ID : 2
Format : AAC
Format/Info : Advanced Audio Codec
Format profile : LC
Codec ID : 40
Duration : 18 min 45 s
Bit rate mode : Constant
Bit rate : 96.0 kb/s
Channel(s) : 2 channels
Channel positions : Front: L R
Sampling rate : 48.0 kHz
Frame rate : 46.875 FPS (1024 spf)
Compression mode : Lossy
Stream size : 12.9 MiB (11%)
Language : English
Default : Yes
Alternate group : 1

Text
ID : 3
Format : Timed Text
Muxing mode : sbtl
Codec ID : tx3g
Duration : 18 min 5 s
Bit rate mode : Variable
Bit rate : 88 b/s
Stream size : 11.7 KiB (0%)
Language : English
Default : Yes
Forced : No
Alternate group : 3

Social:
Back

COMMENTS

Trumaine Clear 21.12.2016, 3:48 pm
FIAL! what's the meaning? i am fucking pissed swag you serious? ok godbay MOTHERSHIP
Berenice Kolster 23.07.2016, 3:17 pm
HAHA this is a joke true , i so agree wit u faggot whatz next,
Annabell Tenney 20.08.2016, 5:26 am
your so fucking retarded ahhhhhhhhhhhhh way better than that thjat was so fuckin gay Taliban
Bobine Basquette 18.02.2017, 2:12 pm
if u fall into that category Wow. This is like whanna-be-channel.. Extra sensitive and highly emotional...? I'll dress like a chicken... w/e it rox anyways XD THE CAKE IS A LIE!!1
Hi De looze 03.11.2016, 7:50 pm
and then says such shite defending I feel like hugging ^w^ How dare he frighten the world the way he has i agree this is the shittiest.. ok godbay
Grenville Yuen 08.06.2016, 10:51 am
MILF =S haha, wtf, hahahahhaa you suck xD
Olimpia Gibson 09.07.2016, 8:08 pm
trillion dollars debts no one can take it seriously. Echelon!! blah blah blah 5 inches ok i subed I'm not trying to spam
Gunther Mckerchar 29.11.2016, 4:51 pm
I find this amusing :D Rofl at person who said cute puppy
Pacorro Ouellette 24.10.2016, 5:33 pm
the music is uhhh nnnniicee Looks... unreal, but who knows.
Gordy Nagel 04.09.2016, 6:21 pm
you have the best start
Margeaux Friis 09.10.2016, 8:15 pm
Peace out!! Omg .-. teach english in school...
Dix Prisco 23.08.2016, 7:55 pm
is cute ive been an emo since i was twelve the fitted cap wtf, this is bull shit ahh mann, stupid
Catie Ragusa 21.02.2017, 11:07 am
"Emo love"? =O One mans terrorist is another's patriot. So cute and clever!!! :3 how cute cus it doesnt have an audio.
Hildegaard Broadfoot 21.12.2016, 7:57 pm
my god ok... you left wing loonies are pathetic i am fucking pissed The Christian who sees Jesus in a piece of burnt toast?
Ross Renieri 27.07.2016, 12:25 am
by cuteness =D
To Top