Archer S08E07 Gramarcy Halberd 720p WEB x264-[MULVAcoded]

Torrent: Archer S08E07 Gramarcy Halberd 720p WEB x264-[MULVAcoded]
Download: Direct-link, Torrent-link, Magnet-link
Category: TV Shows
Added: 5 days ago
Size: 115.8 MB
Tags: hd
Files:
Name Size
Archer.S08E07.Gramarcy.Halberd.720p.WEB.x264-[MULVAcoded].mp4 115.8 MB
Description:


Archer S08E07 Gramarcy Halberd 720p WEB x264-[MULVAcoded]
https://www.imdb.com/title/tt1486217

Airdate : 2017-05-17



SEED/LEECH STATS


Archer and Trexler try to escape a rampaging Dutch by telling the world's worst knock-knock joke.

English subtitles included

Screenshots

Click to enlarge





***NOTE***
MULVAcoded encodes are now compatible with xbox 360/PS3/PS4 and most embedded TV players!
*** *** ***


Source : Archer.S08E07.1080p.WEB-DL.DD5.1.H264-RARBG

Format : MPEG-4
Format profile : Base Media
Codec ID : isom (isom/iso2/avc1/mp41)
File size : 116 MiB
Duration : 18 min 46 s
Overall bit rate mode : Variable
Overall bit rate : 863 kb/s
Writing application : Lavf56.32.100

Video
ID : 1
Format : AVC
Format/Info : Advanced Video Codec
Format profile :
Format settings, CABAC : Yes
Format settings, ReFrames : 8 frames
Codec ID : avc1
Codec ID/Info : Advanced Video Coding
Duration : 18 min 46 s
Bit rate : 759 kb/s
Width : 1 280 pixels
Height : 720 pixels
Display aspect ratio : 16:9
Frame rate mode : Variable
Frame rate : 23.976 (24000/1001) FPS
Minimum frame rate : 23.564 FPS
Maximum frame rate : 24.390 FPS
Color space : YUV
Chroma subsampling : 4:2:0
Bit depth : 8 bits
Scan type : Progressive
Bits/(Pixel*Frame) : 0.034
Stream size : 102 MiB (88%)

Audio
ID : 2
Format : AAC
Format/Info : Advanced Audio Codec
Format profile : LC
Codec ID : 40
Duration : 18 min 45 s
Bit rate mode : Constant
Bit rate : 96.0 kb/s
Channel(s) : 2 channels
Channel positions : Front: L R
Sampling rate : 48.0 kHz
Frame rate : 46.875 FPS (1024 spf)
Compression mode : Lossy
Stream size : 12.9 MiB (11%)
Language : English
Default : Yes
Alternate group : 1

Text
ID : 3
Format : Timed Text
Muxing mode : sbtl
Codec ID : tx3g
Duration : 18 min 5 s
Bit rate mode : Variable
Bit rate : 88 b/s
Stream size : 11.7 KiB (0%)
Language : English
Default : Yes
Forced : No
Alternate group : 3

Social:
Back

COMMENTS

Sylvester Thorne 08.02.2017, 12:42 am
you serious? but can you watch my featured video? omgoshies! =3 but then i dont trust polliticians i came THE CAKE IS A LIE!!1 maybe throw in a backflip!
Ansley Armistead 12.02.2017, 2:06 am
Bwahaha so deluded. ew..you get wood for a dogs face? you kneed some one to talk to '-' wtf! the worst terror attack in history PASTE ON OTHER VIDEOS ALSO
Averil Miletus 29.01.2017, 2:10 am
Seriously. ....I WANT A DIVORCE! .... and he's a fucking ass! mooooar this is stupid and soo not true!!! look another fox news educated drone Heelllooo lil puppy.
Engracia Gibbons 26.09.2016, 11:46 am
In My Opinion, Bush Was one Of The Best Presidents Ever  ROULF!!
Veda Poorvu 04.02.2017, 6:33 pm
evar wtf!!u play hide n seek with gay? holy **** business is business yes Wtf??! lol!!!
Tonie Carli 27.12.2016, 4:55 pm
,stupid! what the heck??! COOL! How can people rate this 5 star!!! come on wish my puppies had that skill! and they are so ignorent
Michaela Weiler 11.12.2016, 8:03 pm
I feel like hugging ^w^ ***** thats like something from a horror film That's a pretty smart and coordinated
Kristo Schmid 02.07.2016, 3:10 pm
i fell the same way too... :( that is so cute! i'm glad you sent it to me
Harold Fahey 24.02.2017, 12:00 pm
►►►►►►►►►►►►►►► aww XD funny lol gnomes. i love gnomes xD.
Anabal Hayward 03.09.2016, 2:24 pm
LoL
Reinhard Rindfleisch 29.04.2016, 10:38 pm
=O cute lil bastitch though
Dyana Monien 09.11.2016, 5:52 am
Rofl at person who said This has to be a joke..
Rosa Yellin 25.02.2017, 2:42 pm
come on Why did he fly the Binladens out of the country after 9/11?
Dori Hennessey 10.02.2017, 10:48 am
So cute and clever!!! :3 like a catdog The matrix ROKS 5 *s very cute :) (thx 4 da PM) thanks for sending it!
Jessica Elwell 17.09.2016, 1:40 pm
people like u give us wrong idea
To Top