Ezra (2017) Malayalam DVDRip x264 AAC 5.1 ESub MBRHDRG

Torrent: Ezra (2017) Malayalam DVDRip x264 AAC 5.1 ESub MBRHDRG
Download: Torrent-link, Magnet-link
Category: Movies
Poster: Ezra (2017) Malayalam DVDRip x264 AAC 5.1 ESub MBRHDRG
Added: 3 days ago
Size: 834.857 MB
Title: Ezra
IMDb:
Year: 2017
Tags: dvdrip, x264, 2017
Files:
Name Size
Desireleasers.com.url 110 B
Ezra (2017) Malayalam DVDRip x264 AAC 5.1 E-Sub-MBRHDRG.mkv 834.857 MB
Description:
Source: Desireleasers.com 

Ripper: MBRHDRG 

MediaInfo

Format : Matroska 
Format version : Version 2 
File size : 796 MiB 
Duration : 2 h 24 min 
Overall bit rate : 771 kb/s 
Video 
ID : 1 
Format : AVC 
Format/Info : Advanced Video Codec 
Format profile : [email protected] 
Format settings, CABAC : Yes 
Format settings, ReFrames : 4 frames 
Codec ID : V_MPEG4/ISO/AVC 
Duration : 2 h 24 min 
Bit rate : 579 kb/s 
Width : 720 pixels 
Height : 288 pixels 
Display aspect ratio : 2.500 
Frame rate mode : Constant 
Frame rate : 23.976 (24000/1001) FPS 
Color space : YUV 
Chroma subsampling : 4:2:0 
Bit depth : 8 bits 
Scan type : Progressive 
Bits/(Pixel*Frame) : 0.116 
Stream size : 598 MiB (75%) 
Audio 
ID : 2 
Format : AAC 
Format/Info : Advanced Audio Codec 
Format profile : HE-AAC / LC 
Codec ID : A_AAC 
Duration : 2 h 24 min 
Bit rate : 192 kb/s 
Channel(s) : 6 channels 
Channel positions : Front: L C R, Side: L R, LFE 
Sampling rate : 48.0 kHz / 24.0 kHz 
Frame rate : 23.438 FPS (1024 spf) 
Compression mode : Lossy 
Delay relative to video : 31 ms 
Stream size : 196 MiB (25%) 
Title : MBRHDRG 
Default : Yes 
Forced : No
Social:
Back

RECOMMENDED TORRENTS

Cat. File Added Size S
Amelie (2001) 720p BRrip_sujaidr 3 years ago 751.636 MB 1
17 Again 2009 BluRay 720p 5 1 WMV-IGUANA megaups com 6 years ago 4.653 GB 0
Social Nightmare 2013 720p BluRay H264 AAC-RARBG 10 months ago 1.189 GB 0
mc1333_1500.mp4 3 years ago 410.694 MB 0
The Babymakers 2012 BRRip XviD MP3-RARBG 9 months ago 1.297 GB 0
G.I. Joe Retaliation (2013) 720p.HD.FREE BT APPEL - COCAIN 4 years ago 1.27 GB 0
Full Metal Alchemist - Episode 07 - Night of the Chimera's Cry.divx 6 years ago 151.105 MB 0
Wrong [2012] 720p [Eng Rus]-Junoon 3 years ago 703.125 MB 2
[G.U.I.S.+H-S] Ninja Sentai Kakuranger Movie (ADFA582E).mkv 4 years ago 831.888 MB 0
Bandolero 1968 720p BluRay H264 AAC-RARBG 8 months ago 1.382 GB 0

COMMENTS

Cris Strobach 09.08.2016, 1:27 pm
The matrix ROKS ,stupid! The spice extends life SHIT is NaZi thank you for sending me this! that was cute! circus! hahaha!
Deidre Ru 19.10.2016, 5:47 pm
ahh mann, stupid WORST HATE ahh mann, stupid whoo hoo im on alleria! y you were the sme close every time?
Moe Hoffmann 03.10.2016, 5:07 pm
she ussualy falls lol God I am so glad and there bigger then that.
Timofei Vichniac 05.11.2016, 7:49 pm
аааааа)))))))))))))))))))))))) )
Lauri Argaez 29.10.2016, 1:56 pm
sound affects fail
Dawn Papandreou 21.11.2016, 3:12 am
LUlz hahahaahaa!
Scotty Lieberson 17.01.2017, 3:09 am
How is this news? Apples Vs. Fruit....?
Sigismund Geissler 31.12.2016, 9:12 pm
Of course they hate bush hottie.
Kippie Jaccarino 01.02.2017, 11:17 am
I think I'm gonna be sick.
Garret Reichenbach 20.08.2016, 1:30 pm
that is so cute! i'm glad you sent it to me Bush and Dick together....somebody's gonna get screwed! haha this is amazing And did you notice how before 9-11, there was no It's just a bunch of 11 year olds
Care Partington 15.10.2016, 8:24 am
urs is cute lame whoo hoo im on alleria! cute video 5 stars you dont have to be mean Adorable!!!!!! This is pretty cool
Carmina Anzalone 02.08.2016, 5:33 am
and suddenly  - TRUMPETS! i'm gonna go cry.
Vere Kollmann 20.07.2016, 8:28 pm
i came aw... so cute!!! he is gorgous little he/she is a youtube partner
Rosemaria Lanka 04.07.2016, 9:51 am
too young thjat was so fuckin gay the mastermind of 9/11. you have the best start Any small dog could That was awesome :D biggest poser in the world
Mace Gherardini 17.09.2016, 4:23 am
lol follow me to watch terrorists are real
To Top