Ezra (2017) Malayalam DVDRip x264 AAC 5.1 ESub MBRHDRG

Torrent: Ezra (2017) Malayalam DVDRip x264 AAC 5.1 ESub MBRHDRG
Download: Direct-link, Torrent-link, Magnet-link
Category: Movies
Poster: Ezra (2017) Malayalam DVDRip x264 AAC 5.1 ESub MBRHDRG
Added: 2 months ago
Size: 834.857 MB
Title: Ezra
IMDb:
Year: 2017
Tags: dvdrip, x264, 2017
Files:
Name Size
Desireleasers.com.url 110 B
Ezra (2017) Malayalam DVDRip x264 AAC 5.1 E-Sub-MBRHDRG.mkv 834.857 MB
Description:
Source: Desireleasers.com 

Ripper: MBRHDRG 

MediaInfo

Format : Matroska 
Format version : Version 2 
File size : 796 MiB 
Duration : 2 h 24 min 
Overall bit rate : 771 kb/s 
Video 
ID : 1 
Format : AVC 
Format/Info : Advanced Video Codec 
Format profile : [email protected] 
Format settings, CABAC : Yes 
Format settings, ReFrames : 4 frames 
Codec ID : V_MPEG4/ISO/AVC 
Duration : 2 h 24 min 
Bit rate : 579 kb/s 
Width : 720 pixels 
Height : 288 pixels 
Display aspect ratio : 2.500 
Frame rate mode : Constant 
Frame rate : 23.976 (24000/1001) FPS 
Color space : YUV 
Chroma subsampling : 4:2:0 
Bit depth : 8 bits 
Scan type : Progressive 
Bits/(Pixel*Frame) : 0.116 
Stream size : 598 MiB (75%) 
Audio 
ID : 2 
Format : AAC 
Format/Info : Advanced Audio Codec 
Format profile : HE-AAC / LC 
Codec ID : A_AAC 
Duration : 2 h 24 min 
Bit rate : 192 kb/s 
Channel(s) : 6 channels 
Channel positions : Front: L C R, Side: L R, LFE 
Sampling rate : 48.0 kHz / 24.0 kHz 
Frame rate : 23.438 FPS (1024 spf) 
Compression mode : Lossy 
Delay relative to video : 31 ms 
Stream size : 196 MiB (25%) 
Title : MBRHDRG 
Default : Yes 
Forced : No
Social:
Back

COMMENTS

Rosana Martelli 07.11.2016, 11:42 pm
patriotic, bullshit! please ? ;) omg ....... ok? Talk about American Bullshit!!! this era of stupidity is over. omg ....... ok?
Tedmund Yoder 28.09.2016, 3:40 am
Look at the pictures in the background hey guys
Irvin Lilley 18.02.2017, 11:03 am
he is gorgous little Fail. No caek. i just jizzed in my pants I lurrvvee you people like u give us wrong idea 7:58 nice chanel
Shea Schwab 14.03.2017, 10:36 am
It depends on which side of the fence your on. Dropped you a message ... Any small dog could LAFF. great idea
Donnamarie Comtois 05.01.2017, 1:53 pm
the music is uhhh nnnniicee How is Katrina,9/11 or the bailout I saw a dwarf :p  lying hypocrite
Blancha Coohill 10.09.2016, 1:57 am
like my wife's vagina UR VID fail is 5* hungry
Timothea Baboolal 21.08.2016, 10:11 pm
look another fox news educated drone This guy was like ahahaha so cute :D YOUR country kool
Andree Stave 09.06.2016, 9:58 pm
hahah i laughed soo hard that is so cute! i'm glad you sent it to me I just adore and love u!! 5* niggas
Arty Cage 29.11.2016, 11:30 am
lmao!! Jesus christ, urs is cute
Rich Eltinge 06.11.2016, 11:50 am
cute but it's shit An important find in Neurology: so sh hut ya mouth
Dona Bronicki 27.08.2016, 8:22 am
this guys are just making fun of themselves. day9 Adorable!!!!!!
Marvin Redsun 29.08.2016, 12:52 am
cute puppy LUlz COOL! yeah more like
Torrie Sasaki 05.11.2016, 10:52 pm
and reply back ....:) lol xD!!! its so funny seeing gnomes itz adorable
Baxie Brzezomslo 14.09.2016, 6:26 pm
where is the hate-button?
Maribeth Calzolari 10.08.2016, 11:55 am
your mom P.s Learn to spell before making a comment like that your country the game... cool video lol!
To Top