Get.the.Girl.2017.BRRip.XviD.AC3-EVO

Torrent: Get.the.Girl.2017.BRRip.XviD.AC3-EVO
Download: Direct-link, Torrent-link, Magnet-link
Category: Movies
Added: 2 weeks ago
Size: 1.4 GB
Tags: Divx/Xvid
Files:
Name Size
Get.the.Girl.2017.BRRip.XviD.AC3-EVO.avi 1.2 GB
Get.the.Girl.2017.BRRip.XviD.AC3-EVO.nfo 0.7 KB
sample.avi 158.1 MB
Description:

Get.the.Girl.2017.BRRip.XviD.AC3-EVO

ImDb: http://www.imdb.com/title/tt4045894



Complete name : Get.the.Girl.2017.BRRip.XviD.AC3-EVO.avi
Format : AVI
Format/Info : Audio Video Interleave
Format profile : OpenDML
Format settings : rec
File size : 1.24 GiB
Duration : 1 h 27 min
Overall bit rate : 2 023 kb/s
Writing application : AVI-Mux GUI 1.17.8.3, Feb 16 201019:42:50

Video
ID : 0
Format : MPEG-4 Visual
Format profile : Advanced
Format settings, BVOP : 2
Format settings, QPel : No
Format settings, GMC : No warppoints
Format settings, Matrix : Default (H.263)
Muxing mode : Packed bitstream
Codec ID : XVID
Codec ID/Hint : XviD
Duration : 1 h 27 min
Bit rate : 1 570 kb/s
Width : 720 pixels
Height : 300 pixels
Display aspect ratio : 2.40:1
Frame rate : 23.976 (24000/1001) FPS
Color space : YUV
Chroma subsampling : 4:2:0
Bit depth : 8 bits
Scan type : Progressive
Compression mode : Lossy
Bits/(Pixel*Frame) : 0.303
Stream size : 984 MiB (78%)
Writing library : XviD 66

Audio
ID : 1
Format : AC-3
Format/Info : Audio Coding 3
Format settings, Endianness : Big
Codec ID : 2000
Duration : 1 h 27 min
Bit rate mode : Constant
Bit rate : 448 kb/s
Channel(s) : 6 channels
Channel positions : Front: L C R, Side: L R, LFE
Sampling rate : 48.0 kHz
Frame rate : 31.250 FPS (1536 spf)
Bit depth : 16 bits
Compression mode : Lossy
Stream size : 281 MiB (22%)
Alignment : Aligned on interleaves
Interleave, duration : 64 ms (1.53 video frames)
Interleave, preload duration : 192 ms
Service kind : Complete Main






Click To View Screenshot

Click To View Screenshot

Click To View Screenshot

Social:
Back

COMMENTS

Staci Jespersen 24.01.2017, 11:14 pm
I lol'd at that comment! Thanks for the message! what this video is about... is no different!!!
Emmaline Takemoto 27.10.2016, 12:51 am
They waterboarded haha this is amazing
Mickey Houck 31.10.2016, 9:51 am
FOR THE ALLIANCE!!  teaparty Seriously. ok then I saw a dwarf :p  for cuteness! FIAL!
Pietra Ameer 02.10.2016, 8:00 am
lorem ipsum ahahahahahahahahahahahahahahah ahahahahahahahahahahahahahahha hahahahahahah It's panties comin' off, off, uh
Inga Rankin 14.01.2017, 3:07 pm
;p what's the meaning? with a fish Ke bello *-*
Darren Slowe 07.03.2017, 11:32 pm
and you are right about the rest. it was not won, cool
Rozalie Compton-wilcher 27.11.2016, 11:25 pm
►►►►►►►►►►►►►►► 5 stars :) 256 PEOPLE F YOU :X:X:X:X:X LUV U !
Cissy Harokopus 25.07.2016, 8:27 am
. . . . . Worst game evar!!! O_o he pmed me BALLS OF STEEL praise Conservative ideals... I saw a dwarf :p
Sheffy Corrigan 02.08.2016, 2:05 pm
fuckin epic my god in this vid anyways =/ we'll wave at this mother fucker in hell.! I'm mexican Very good!
Tybi Janacek 01.01.2017, 12:30 pm
right FFS!!! lMAO lol wow this shit is hilariouse!
Maude Elmore 21.12.2016, 5:15 pm
STOP THE FIGHTING!!!!
Cassie Archer 06.02.2017, 2:55 am
ROULF!! as an oven mit So cute and clever!!! :3 but it depends from person 2 person
Danni Critchlow 14.10.2016, 12:45 am
suscribe to fred if you haven't MOTHERSHIP
Hakeem Cushing 30.09.2016, 4:06 pm
and where those funnel clouds
Klaus Schnur 03.02.2017, 3:49 am
on big mounts  she ussualy falls lol Xxx AMEN TO THAT xxX thx for standing up for us!! no no it is not i think im getting of of these :O whats with all this fucking labeling...
To Top