[KANNADA] Ishtakamya 2016 1080p Untouched WebHD x264 AAC [TMB]

Torrent: [KANNADA] Ishtakamya 2016 1080p Untouched WebHD x264 AAC [TMB]
Download: Direct-link, Torrent-link, Magnet-link
Category: Movies
Added: 1 week ago
Size: 2.4 GB
Tags: hd
Files:
Name Size
Ishtakamya 2016 1080p Untouched WebHD x264 AAC [TMB].mp4 2.4 GB
Description:



























General
Complete name : Ishtakamya 2016 1080p Untouched WebHD x264 AAC [TMB].mp4
Format : MPEG-4
Format profile : Base Media
Codec ID : isom (isom/iso2/avc1/mp41)
File size : 2.41 GiB
Duration : 2 h 13 min
Overall bit rate mode : Variable
Overall bit rate : 2 583 kb/s
Writing application : Lavf56.40.101

Video
Format : AVC
Format/Info : Advanced Video Codec
Format profile :
Format settings, CABAC : Yes
Format settings, ReFrames : 5 frames
Codec ID : avc1
Codec ID/Info : Advanced Video Coding
Duration : 2 h 13 min
Bit rate : 2 500 kb/s
Width : 1 920 pixels
Height : 1 080 pixels
Display aspect ratio : 16:9
Frame rate mode : Constant
Frame rate : 25.000 FPS
Color space : YUV
Chroma subsampling : 4:2:0
Bit depth : 8 bits
Scan type : Progressive
Bits/(Pixel*Frame) : 0.048
Stream size : 2.28 GiB (95%)
Writing library : x264 core 148 r2721 72d53ab

Audio
Format : AAC
Format/Info : Advanced Audio Codec
Format profile : LC
Codec ID : 40
Duration : 2 h 13 min
Bit rate mode : Variable
Bit rate : 128 kb/s
Maximum bit rate : 131 kb/s
Channel(s) : 2 channels
Channel positions : Front: L R
Sampling rate : 44.1 kHz
Frame rate : 43.066 FPS (1024 spf)
Compression mode : Lossy
Stream size : 122 MiB (5%)


Uploaded & Shared by Manojvb

Seeding 24x7... Extreme Seeding...


Social:
Back

COMMENTS

Joell Depree 09.08.2016, 4:49 pm
with a unicorn yeah more like How is this news?
Reggie Porter 06.03.2017, 10:08 am
so cute, and fuffy. i'm 12 and what is this LUlz you simply don't believe in that sort of thing check it out
Pippa Thomson 22.08.2016, 8:48 am
cute!! :) Y????? Have a great night and I hope Hahaha =] during times like this
Reggie Steuernagel 04.09.2016, 9:47 am
y u no
Nikolas Zimmermann 18.02.2017, 6:39 pm
life lesson learned. like when you found out that the easter bunny didn't exist... STALIN!!!! 1:57 makes me want to cry
Duffie Kirchmaier 13.10.2016, 12:33 am
not impressive at all lol look up zeitgiest addendum ! Peek-a-boo. look up zeitgiest addendum !
Stephenie El-shaarawi 28.08.2016, 2:31 pm
with a fish WORST hitler that is so cute! i'm glad you sent it to me y u no God I am so glad
Skipton Witten 20.07.2016, 12:16 am
Fuckn get it right I hope we can save some souls you simply don't believe in that sort of thing OMG
Kellina Stager 26.01.2017, 1:05 pm
Have you seen the dog for hitler
Inessa Ribecco 28.10.2016, 3:48 pm
Very cute :)
Lyle Woolfolk 27.08.2016, 2:31 pm
Dropped you a message I hate dogs.
Rollo Loster 09.01.2017, 2:27 pm
geez
Gretna Mccullough 17.02.2017, 3:17 am
love is intense o.O you know what i mean Aww Bless (: xxx peace The matrix ROKS PASTE ON OTHER VIDEOS ALSO Sure, why not?
Georgie Eckhaus 24.06.2016, 7:41 pm
right FFS!!! subed plz sub back
Terri Renjel 10.02.2017, 5:01 am
This is soo fake
To Top