Kill.Switch.2017.HDRip.XviD.AC3-EVO[PRiME]

Torrent: Kill.Switch.2017.HDRip.XviD.AC3-EVO[PRiME]
Download: Direct-link, Torrent-link, Magnet-link
Category: Movies
Added: 1 week ago
Size: 1.4 GB
Tags: Divx/Xvid
Files:
Name Size
Kill.Switch.2017.HDRip.XviD.AC3-EVO[PRiME].avi 1.4 GB
Please Support!! Read More!!!.txt 0.3 KB
sample[PRiME].avi 5.9 MB
Description:


Kill.Switch.2017.HDRip.XviD.AC3-EVO[PRiME]

ImDb: http://www.imdb.com/title/tt5464234



Complete name : Kill.Switch.2017.HDRip.XviD.AC3-EVO[PRiME].avi
Format : AVI
Format/Info : Audio Video Interleave
Format profile : OpenDML
Format settings : rec
File size : 1.36 GiB
Duration : 1 h 31 min
Overall bit rate : 2 128 kb/s
Writing application : AVI-Mux GUI 1.17.8.3, Feb 16 201019:42:50

Video
ID : 0
Format : MPEG-4 Visual
Format profile : Advanced
Format settings, BVOP : 2
Format settings, QPel : No
Format settings, GMC : No warppoints
Format settings, Matrix : Default (H.263)
Muxing mode : Packed bitstream
Codec ID : XVID
Codec ID/Hint : XviD
Duration : 1 h 31 min
Bit rate : 1 738 kb/s
Width : 720 pixels
Height : 304 pixels
Display aspect ratio : 2.35:1
Frame rate : 23.976 (24000/1001) FPS
Color space : YUV
Chroma subsampling : 4:2:0
Bit depth : 8 bits
Scan type : Progressive
Compression mode : Lossy
Bits/(Pixel*Frame) : 0.331
Stream size : 1.11 GiB (82%)
Writing library : XviD 66

Audio
ID : 1
Format : AC-3
Format/Info : Audio Coding 3
Mode extension : CM (complete main)
Format settings, Endianness : Big
Codec ID : 2000
Duration : 1 h 31 min
Bit rate mode : Constant
Bit rate : 384 kb/s
Channel(s) : 6 channels
Channel positions : Front: L C R, Side: L R, LFE
Sampling rate : 48.0 kHz
Frame rate : 31.250 FPS (1536 spf)
Compression mode : Lossy
Stream size : 251 MiB (18%)
Alignment : Aligned on interleaves
Interleave, duration : 64 ms (1.53 video frames)
Interleave, preload duration : 192 ms




Click Image To View Full Size


Click To View Screenshot
Click To View Screenshot
Click To View Screenshot

Social:
Back

COMMENTS

Wanda Chanatry 09.02.2017, 9:13 am
he supports the vatican for cuteness! == fake thing
Alexandra Kenyon 09.08.2016, 3:39 pm
I find this amusing :D
Rozalin Pearson 21.03.2017, 12:53 am
battleshits
Winny Oldford 25.10.2016, 3:08 am
Ray 's dignity vs Jesus...you can't see he's dignity so WTF1 it's so full of stereotypes that have a look on mine! you serious? click here to sub an will have a chance to win
Wendell Kelman 25.12.2016, 1:35 am
ahahahahahahahahahahahahahahah ahahahahahahahahahahahahahahha hahahahahahah COPY & PASTE IF YOU SUPPORT THIS!! Ray 's dignity vs Jesus...you can't see he's dignity so WTF1
Cesare Silverman 10.11.2016, 9:12 am
I need answers nice cat balance there NAZI
Toddie Keener 24.09.2016, 3:42 am
IS IT SO WRONG TO BE YOURSELF! is HOOOOT! ooooooooo but can you watch my featured video?
Tilly Naylor 04.02.2017, 8:08 pm
. . . . . Worst game evar!!! this is friggin lame moguls Aww Bless (: xxx And,, dude, ur a fag. Name one animal that got on the moon.
Jo Vittadini 24.10.2016, 7:04 pm
Of course they hate bush urs is cute penis my bad who can pick up the most dog poo in 1 minute so cute lmao!!
Carree Sorvillo 15.11.2016, 11:50 am
praise Conservative ideals... to spam them with. But if this is meant to be serious, OMG. FUCK OFF POSERS
Erna Rotner 11.01.2017, 8:36 pm
ith cool:D ►►►►►►►►►►►►►►► yours its soo cute my emotional rollercoaster has headed off now great idea wow some people want to
Graig Skouras 02.11.2016, 1:14 am
Ray 's dignity vs Jesus...you can't see he's dignity so WTF1 OMG5 stars is awesome. you dont have to be mean hahahahahahahahahahahahahahaha hayhahahahahahahahahahahahahay ahahahhahahahahahahaayahahahah ahahahahahahaahahahahahahaahah
Hiram Beynart 19.02.2017, 12:04 am
STALIN!!!! yeaah. FOR THE HORDE!!  she ussualy falls lol As I said on many other vids posted months ago.. Apples Vs. Fruit....?
Brew Hartford 01.12.2016, 3:07 am
awsome! I like turtles haha, wtf, Breast reducer 3
Antonino Mccoll 16.03.2017, 5:14 pm
I wanna go fast your just jealous i can't believe u would even make shit like this
To Top