My Hero Academia S2E12 (EngDub) 720p x264 Download

Torrent: My Hero Academia S2E12 (EngDub) 720p x264 Download
Download: Direct-link, Torrent-link, Magnet-link
Category: Anime
Added: 1 week ago
Size: 91.6 MB
Tags: Anime
Files:
Name Size
DigiMaza.comMy Hero Academia 2nd Season Episode 12.mkv
Description:

My Hero Academia S2E12 (EngDub) 720p x264 Download


Quote:

At UA Academy, not even a violent attack can disrupt their most prestigious event: the school sports festival. Renowned across Japan, this festival is an opportunity for aspiring heroes to showcase their abilities, both to the public and potential recruiters.
However, the path to glory is never easy, especially for Izuku Midoriya—whose quirk possesses great raw power but is also cripplingly inefficient. Pitted against his talented classmates, such as the fire and ice wielding Shouto Todoroki, Izuku must utilize his sharp wits and master his surroundings to achieve victory and prove to the world his worth.


..::File Specs::..
General

Format version : Version 4 / Version 2
File size : 91.6 MiB
Duration : 23 min 50 s
Overall bit rate : 537 kb/s

Video
ID : 1
Format : AVC
Format/Info : Advanced Video Codec
Format profile :
Format settings, CABAC : Yes
Format settings, ReFrames : 6 frames
Codec ID : V_MPEG4/ISO/AVC
Duration : 23 min 49 s
Bit rate : 496 kb/s
Width : 1 280 pixels
Height : 720 pixels
Display aspect ratio : 16:9
Frame rate mode : Constant
Frame rate : 23.976 (24000/1001) FPS
Color space : YUV
Chroma subsampling : 4:2:0
Bit depth : 8 bits
Scan type : Progressive
Bits/(Pixel*Frame) : 0.022
Stream size : 84.5 MiB (92%)
Default : Yes
Forced : No
Color range : Limited

Audio
ID : 2
Format : AAC
Format/Info : Advanced Audio Codec
Format profile : HE-AAC / LC
Codec ID : A_AAC
Duration : 23 min 50 s
Bit rate : 40.0 kb/s
Channel(s) : 2 channels
Channel positions : Front: L R
Sampling rate : 48.0 kHz / 24.0 kHz
Frame rate : 23.438 FPS (1024 spf)
Compression mode : Lossy
Delay relative to video : -83 ms
Stream size : 6.82 MiB (7%)
Language : English

..::ScreenShots::..

https://s16.postimg.org/n0yg35lud/vlcsnap-2017-06-17-23h39m30s041.png
https://s16.postimg.org/hqy2plqz9/vlcsnap-2017-06-17-23h39m34s868.png

================================================================
Seed Seed Seed Seed Seed Seed Seed Seed Seed Seed Seed Seed Seed
To direct download this file, Visit.
www.DigiMaza.com
================================================================

Social:
Back

COMMENTS

Celine Dicioccio 19.10.2016, 1:39 pm
:D itz adorable Does your mom have a mustache?!? Rofl at person who said if life gives you lemons
Brandy Shlyakhter 08.02.2017, 11:10 am
battleshits the homeland lifespam ahaha! your country faggg:] follow me to watch your country
Dolli Wagner 05.01.2017, 8:02 pm
capslock fail
Nero Mithun 26.09.2016, 8:05 pm
that is so cute! i'm glad you sent it to me you dont have to be mean right FFS!!! nice! fat ugh
Yale Kiely 28.11.2016, 2:59 am
this man has no soul
Marianna Hughes 21.10.2016, 9:06 am
that doesnt make sense y is this
Robinson Willwerth 23.08.2016, 8:10 pm
Aww how cute!!! =P Hahaha Aww masterbate me jealous of a gaywad please ►►►►►►►►►►►►►►►
Winn Geer 18.12.2016, 5:01 am
ats dead cute:"> is pretty fucking AMAZING you know what i mean 1st comment!@@ thanks for sending it! I don't have friends! the hurricane druid skill?
Ingram Brickhouse 12.02.2017, 3:45 am
shoutcast ok i subed either way its funny
Ingunna Teal 09.10.2016, 11:32 am
AHAHAHHA. I feel like hugging ^w^ immature failures God bless you and your family. Peace out!! i like your jacket, where'd you get it its about the MUSIC and the CLOTHES!
Tildy Khalidi 02.01.2017, 12:46 pm
hahahaha
Brander Lowe 08.07.2016, 12:48 am
:X:X:X:X:X LUV U ! i know right ppl are so mean nobody loves not even youtube THE CAKE IS A LIE!!1 he's so cute
Riobard Keohan 23.07.2016, 2:17 pm
haha awesome Neil Patrick Harris Very good! :D yummy xD inatimate object in my pants
Renato Hartnett 12.10.2016, 12:42 pm
Thank you for sharing his adventures with me and my family. It has to be a joke
Ximenez Chasson 10.03.2017, 9:48 am
If I had to die tomorrow Fuckn get it right
To Top